<?xml version="1.0" standalone="no"?>
<!DOCTYPE svg PUBLIC "-//W3C//DTD SVG 1.1//EN" "http://www.w3.org/Graphics/SVG/1.1/DTD/svg11.dtd" >
<svg xmlns="http://www.w3.org/2000/svg">
<metadata>Generated by IcoMoon</metadata>
<defs>
<font id="ec" horiz-adv-x="1024">
<font-face units-per-em="1024" ascent="960" descent="-64" />
<missing-glyph horiz-adv-x="1024" />
<glyph unicode="&#x20;" horiz-adv-x="512" d="" />
<glyph unicode="&#xe900;" glyph-name="cart" horiz-adv-x="980" d="M814.112-63.956h-647.751c-41.514 0.739-78.559 19.26-103.946 48.249l-0.14 0.163c-38.981 45.326-62.717 104.74-62.717 169.697 0 8.433 0.4 16.772 1.182 25l-0.081-1.050c0.024 0.94 0.104 1.837 0.235 2.717l-0.015-0.121 49.996 259.664c8.318 114.208 79.219 200.117 165.569 200.117h547.407c86.085 0 156.943-85.953 165.305-200.117l49.996-259.664c0.154-0.744 0.279-1.648 0.348-2.568l0.004-0.073c0.743-7.38 1.166-15.949 1.166-24.616 0-64.681-23.59-123.853-62.635-169.381l0.293 0.35c-25.559-29.171-62.66-47.687-104.099-48.366l-0.118-0.002zM44.539 173.702c-0.593-6.008-0.932-12.986-0.932-20.044 0-53.173 19.205-101.861 51.058-139.505l-0.262 0.317c17.645-20.338 43.173-33.434 71.776-34.499l0.181-0.005h647.751c28.809 1.064 54.357 14.18 71.896 34.424l0.106 0.125c31.426 37.219 50.527 85.732 50.527 138.707 0 7.196-0.352 14.31-1.041 21.325l0.071-0.889-49.996 259.664c-0.154 0.744-0.279 1.648-0.348 2.568l-0.004 0.073c-6.162 90.002-59.503 160.463-121.47 160.463h-547.319c-62.099 0-115.572-70.417-121.734-160.463-0.073-0.993-0.198-1.897-0.376-2.781l0.024 0.141zM706.858 482.703c-12.153 0-22.005 9.852-22.005 22.005v0 216.797c0 107.496-87.142 194.638-194.638 194.638s-194.638-87.142-194.638-194.638v0-216.621c0-12.153-9.852-22.005-22.005-22.005s-22.005 9.852-22.005 22.005v0 216.621c0 131.802 106.847 238.649 238.649 238.649s238.649-106.847 238.649-238.649v0-216.621c0-0.052 0.001-0.114 0.001-0.176 0-12.153-9.852-22.005-22.005-22.005 0 0 0 0-0.001 0v0z" />
<glyph unicode="&#xe901;" glyph-name="heart" horiz-adv-x="1236" d="M365.92 960v0c98.436-0.549 187.36-40.822 251.643-105.586l0.021-0.022c64.404 64.792 153.416 105.061 251.835 105.607h0.882c203.151-4.508 366.111-170.258 366.111-374.070 0-2.219-0.019-4.433-0.058-6.642l0.005 0.333c-0.261-91-31.971-174.543-84.826-240.386l0.587 0.756c-89.44-115.412-196.898-211.836-319.040-286.62l-5.149-2.931c-55.373-36.781-120.28-74.136-187.524-107.489l-10.696-4.799c-2.842-1.362-6.178-2.158-9.701-2.158s-6.858 0.796-9.839 2.218l0.138-0.059c-72.846 35.484-133.053 69.682-190.994 107.089l7.142-4.318c-120.978 74.371-224.531 162.621-312.812 264.47l-1.402 1.654c-69.326 69.372-112.201 165.184-112.201 271.010 0 0.647 0.002 1.294 0.005 1.94v-0.1c-0.039 2.013-0.061 4.386-0.061 6.764 0 203.459 162.714 368.913 365.112 373.334l0.412 0.007zM617.585 797.837c-6.921 0.002-13.123 3.076-17.317 7.932l-0.025 0.029c-57.002 66.048-140.609 107.788-233.979 108.444l-0.114 0.001c-177.789-4.067-320.358-149.154-320.358-327.541 0-2.168 0.021-4.331 0.063-6.489l-0.005 0.323s0-0.366 0-0.549c-0.002-0.478-0.004-1.044-0.004-1.61 0-93.781 38.192-178.641 99.872-239.876l0.020-0.020c0.558-0.533 1.081-1.085 1.576-1.662l0.026-0.031c149.443-186.827 418.083-325.517 472.397-352.33 57.151 28.278 351.827 180.512 495.138 382.667l0.824 1.098c46.306 57.46 74.405 131.286 74.63 211.669v0.050s0 0.229 0 0.366c0.032 1.7 0.050 3.705 0.050 5.714 0 178.733-142.785 324.116-320.51 328.306l-0.389 0.007c-93.565-0.681-177.249-42.409-234.034-108.050l-0.334-0.395c-4.195-4.909-10.379-8.013-17.289-8.053h-0.007z" />
<glyph unicode="&#xe902;" glyph-name="account" horiz-adv-x="901" d="M449.791-63.956c-12.944-0.664-28.104-1.043-43.353-1.043-114.934 0-224.846 21.504-325.932 60.708l6.151-2.099c-35.201 12.743-64.119 35.762-83.895 65.401l-0.386 0.615c-1.473 2.874-2.336 6.27-2.336 9.867 0 2.144 0.307 4.217 0.879 6.177l-0.039-0.156c30.427 98.151 88.949 180.164 166.090 239.016l1.152 0.843c77.734 59.183 176.189 94.817 282.966 94.817 106.314 0 204.377-35.326 283.091-94.879l-1.178 0.854c78.055-59.239 136.523-140.621 166.326-234.75l0.915-3.349c0.605-1.917 0.954-4.123 0.954-6.409 0-3.549-0.84-6.901-2.332-9.869l0.058 0.127c-20.454-30.534-49.598-53.84-83.876-66.594l-1.197-0.39c-95.301-37.922-205.735-59.912-321.305-59.912-15.037 0-29.987 0.372-44.842 1.108l2.090-0.082zM46.343 73.138c19.497-21.697 106.242-93.083 403.315-93.083s385.359 73.454 405.032 95.459c-28.867 83.924-80.364 153.857-147.212 204.626l-1.061 0.773c-70.267 53.191-159.134 85.201-255.477 85.201-96.755 0-185.97-32.284-257.459-86.669l1.047 0.764c-68.083-51.991-119.597-122.516-147.292-204.045l-0.893-3.026zM450.055 960c136.116 0 246.461-110.344 246.461-246.461s-110.344-246.461-246.461-246.461c-136.116 0-246.461 110.344-246.461 246.461v0c0.275 136.006 110.455 246.186 246.434 246.461h0.026zM450.055 510.649c111.81 0 202.449 90.64 202.449 202.45s-90.64 202.45-202.45 202.45c-111.655 0-202.199-90.389-202.449-201.986v-0.024c0 0 0 0 0 0 0-111.898 90.586-202.639 202.426-202.889h0.024z" />
<glyph unicode="&#xe903;" glyph-name="menu" horiz-adv-x="1218" d="M1193.594 911.238h-1169.262c-13.465 0-24.381 10.916-24.381 24.381v0c0 13.465 10.916 24.381 24.381 24.381v0h1169.262c13.465 0 24.381-10.916 24.381-24.381v0c0-13.465-10.916-24.381-24.381-24.381v0zM1193.594 423.619h-1169.262c-13.465 0-24.381 10.916-24.381 24.381v0c0 13.465 10.916 24.381 24.381 24.381v0h1169.262c13.465 0 24.381-10.916 24.381-24.381v0c0-13.465-10.916-24.381-24.381-24.381v0zM1193.594-64h-1169.262c-13.465 0-24.381 10.916-24.381 24.381v0c0 13.465 10.916 24.381 24.381 24.381v0h1169.262c13.465 0 24.381-10.916 24.381-24.381v0c0-13.465-10.916-24.381-24.381-24.381v0z" />
<glyph unicode="&#xe904;" glyph-name="search" d="M0 552.048c0 225.281 182.626 407.907 407.907 407.907s407.907-182.626 407.907-407.907c0-225.281-182.626-407.907-407.907-407.907v0c-225.177 0.256-407.65 182.729-407.907 407.882v0.025zM770.781 552.048c0 200.41-162.464 362.874-362.874 362.874s-362.874-162.464-362.874-362.874c0-200.41 162.464-362.874 362.874-362.874v0c200.317 0.231 362.643 162.557 362.874 362.852v0.022zM1024-41.484c-0.001-6.206-2.513-11.825-6.575-15.897v0c-4.074-4.073-9.703-6.592-15.919-6.592s-11.845 2.519-15.919 6.593l-321.219 320.903c-4.073 4.074-6.592 9.703-6.592 15.919s2.519 11.845 6.593 15.919v0c4.074 4.073 9.703 6.592 15.919 6.592s11.845-2.519 15.919-6.593l321.174-320.903c4.088-4.076 6.618-9.713 6.62-15.941v0z" />
<glyph unicode="&#xe905;" glyph-name="phone" d="M201.487-63.948c-19.086 0.284-36.702 6.343-51.243 16.501l0.298-0.197c-31.19 22.466-58.623 45.437-84.294 70.221l0.22-0.211c-59.904 57.873-66.937 84.96-66.416 102.15v0.573c2.709 60.074 18.622 115.858 44.882 165.308l-1.021-2.108c73.499 137.706 164.164 255.387 271.148 355.897l0.714 0.664c111.471 121.101 245.674 219.339 396.1 288.282l7.707 3.165c33.921 14.291 73.304 22.929 114.611 23.697l0.301 0.004h2.5c16.825 0 43.496-7.605 100.431-66.937 23.988-24.961 46.678-51.715 67.648-79.827l1.581-2.216c10.994-13.104 17.673-30.153 17.673-48.761 0-20.422-8.044-38.966-21.137-52.635l0.026 0.027-1.615-1.719-1.927-1.354c-15.992-11.46-186.381-123.872-207.53-137.207l-1.875-1.198-2.084-0.833c-9.756-4.127-21.101-6.526-33.006-6.526-17.619 0-34.011 5.254-47.695 14.28l0.325-0.201c-17.45 9.272-65.113 36.464-89.075 50.111-55.765-41.793-105.098-85.344-150.738-132.493l-0.326-0.338c-47.608-45.816-91.061-95.168-130.221-147.898l-2.246-3.165c13.648-23.91 40.787-71.677 50.059-89.284 8.847-13.361 14.115-29.763 14.115-47.395 0-11.738-2.335-22.93-6.565-33.139l0.211 0.574-0.833-2.084-1.459-1.875c-12.554-20.263-127.206-193.1-137.363-207.477-11.6-14.913-29.548-24.416-49.715-24.416-0.762 0-1.521 0.014-2.277 0.041l0.11-0.003zM52.143 123.266c0.313-1.667 4.792-19.638 52.976-65.53 22.567-21.658 46.849-42.023 72.44-60.702l1.998-1.39c6.105-4.463 13.695-7.235 21.92-7.499l0.063-0.002c0.35-0.028 0.758-0.044 1.17-0.044 3.146 0 6.075 0.93 8.526 2.529l-0.060-0.037c10.418 14.846 116.787 175.181 134.238 202.685 1.165 3.321 1.839 7.149 1.839 11.135 0 7.28-2.246 14.035-6.082 19.611l0.076-0.117-0.886 1.302-0.729 1.354c-10.783 20.836-57.3 101.733-57.612 102.567l-7.449 12.971 7.449 12.971c44.351 65.523 93.38 122.542 148.197 173.409l0.626 0.574c51.54 55.135 108.349 104.171 169.987 146.712l3.475 2.268 13.023 7.709 13.127-7.501c0.833-0.469 81.887-46.882 102.723-57.873l1.25-0.677 1.198-0.833c5.445-3.732 12.176-5.96 19.427-5.96 4.050 0 7.937 0.695 11.549 1.972l-0.242-0.075c26.045 16.669 176.327 115.798 200.601 132.519 3.274 4.038 5.256 9.239 5.256 14.903 0 5.922-2.167 11.337-5.751 15.497l0.026-0.031-0.938 1.094-0.833 1.198c-20.534 27.654-41.107 52.026-63.067 75.065l0.298-0.315c-45.631 47.976-63.238 52.82-65.218 53.185h-0.625c-35.116-0.532-68.393-7.795-98.796-20.55l1.751 0.652c-151.339-69.438-279.761-163.783-385.68-279.125l-0.782-0.863c-243.16-243.368-297.751-397.817-300.459-484.6z" />
<glyph unicode="&#xe906;" glyph-name="facebook" horiz-adv-x="531" d="M433.925 790.115h96.718v162.728c-40.817 4.563-88.137 7.167-136.065 7.167-1.741 0-3.481-0.003-5.22-0.010l0.27 0.001c-139.854 0-235.508-84.773-235.508-240.634v-143.287h-154.12v-182.12h154.168v-457.911h189.18v457.862h148.172l23.406 182.12h-171.577v125.298c0 52.808 14.846 88.787 90.77 88.787z" />
<glyph unicode="&#xe907;" glyph-name="instagram" d="M704.027-64h-384.011c-176.697 0.049-319.925 143.277-319.973 319.969v384.058c0.049 176.697 143.277 319.925 319.969 319.973h384.058c176.697-0.049 319.925-143.277 319.973-319.969v-384.058c0-0.076 0-0.166 0-0.257 0-176.575-143.142-319.717-319.717-319.717-0.090 0-0.18 0-0.271 0h0.014zM320.016 864.115c-123.653-0.267-223.821-100.435-224.088-224.063v-384.078c0.122-123.694 100.387-223.93 224.081-224.003h384.061c123.653 0.267 223.821 100.435 224.088 224.063v384.078c-0.267 123.653-100.435 223.821-224.063 224.088h-0.025zM512.299 192.107c-0.13 0-0.283 0-0.437 0-141.538 0-256.278 114.74-256.278 256.278s114.74 256.278 256.278 256.278c141.538 0 256.278-114.74 256.278-256.278 0-70.703-28.631-134.719-74.932-181.086l0.003 0.003c-45.894-46.437-109.588-75.196-179.998-75.196-0.321 0-0.643 0.001-0.964 0.002h0.050zM512.299 607.965c-88.37 0-160.008-71.638-160.008-160.008s71.638-160.008 160.008-160.008c88.37 0 160.008 71.638 160.008 160.008 0 0.015 0 0.030 0 0.045v-0.002c-0.049 88.342-71.663 159.941-160.006 159.965h-0.002zM787.344 757.372c18.888 0 34.199-15.311 34.199-34.199s-15.311-34.199-34.199-34.199c-18.888 0-34.199 15.311-34.199 34.199v0c0 18.888 15.311 34.199 34.199 34.199v0z" />
<glyph unicode="&#xe908;" glyph-name="pinterest" horiz-adv-x="805" d="M700.459 855.085c-69.871 65.055-163.893 104.985-267.24 104.985-2.618 0-5.23-0.026-7.836-0.077l0.39 0.006c-4.932 0.202-10.72 0.317-16.535 0.317-117.537 0-224.106-46.963-301.964-123.149l0.077 0.075c-64.901-64.344-105.614-152.993-107.345-251.152l-0.005-0.326c0-113.96 47.661-201.48 127.528-234.033 4.738-2.037 10.25-3.239 16.037-3.28h0.016c17.145 0.099 31.418 12.274 34.75 28.446l0.040 0.231c2.684 9.94 8.946 35.187 11.679 46.021 1.646 4.386 2.598 9.454 2.598 14.745 0 12.661-5.455 24.049-14.143 31.941l-0.036 0.032c-21.164 25.552-34.005 58.668-34.005 94.783 0 2.427 0.058 4.841 0.173 7.24l-0.013-0.339c-0.004 0.539-0.006 1.175-0.006 1.813 0 141.385 114.615 256 256 256 3.306 0 6.597-0.063 9.872-0.187l-0.472 0.014c136.772 0 221.757-77.729 221.757-202.872 0.083-3.118 0.13-6.788 0.13-10.469 0-71.449-17.776-138.747-49.146-197.711l1.106 2.277c-21.35-45.642-65.077-77.633-116.673-81.968l-0.518-0.035c-0.551-0.014-1.2-0.022-1.851-0.022-24.064 0-45.572 10.942-59.821 28.123l-0.104 0.128c-9.248 11.868-14.828 26.989-14.828 43.414 0 6.512 0.877 12.819 2.519 18.81l-0.116-0.498c6.063 25.794 14.413 52.731 22.464 78.773 14.35 37.554 24.472 81.089 28.4 126.396l0.128 1.827c0.296 2.789 0.465 6.025 0.465 9.3 0 51.438-41.698 93.136-93.136 93.136-0.373 0-0.746-0.002-1.119-0.007l0.057 0.001c-71.219 0-127.031-72.362-127.031-164.703-0.002-0.386-0.003-0.843-0.003-1.3 0-32.741 6.427-63.981 18.088-92.526l-0.591 1.635c-8.996-38.020-62.323-264.051-72.412-306.693-5.864-24.85-41.101-221.409 17.246-237.065 65.503-17.593 124.248 173.947 130.063 195.417 4.97 17.593 21.719 84.091 32.106 124.993 34.841-31.529 81.22-50.877 132.116-51.041h0.034c0.126 0 0.274 0 0.423 0 96.305 0 181.822 46.193 235.602 117.631l0.543 0.753c55.733 76.867 89.152 173.074 89.152 277.087 0 4.731-0.069 9.446-0.206 14.144l0.016-0.69c-0.984 94.357-40.813 179.223-104.226 239.515l-0.142 0.134z" />
<glyph unicode="&#xe909;" glyph-name="twitter" horiz-adv-x="1327" d="M1326.841 838.812c-45.625-19.361-98.582-33.678-153.877-40.42l-2.869-0.285c55.883 31.247 98.226 81.065 119.145 140.938l0.551 1.812c-49.785-28.449-107.624-50.183-168.991-62.005l-3.554-0.57c-50.663 50.498-120.565 81.72-197.76 81.72-0.308 0-0.615 0-0.923-0.001h0.048c-1.971 0.053-4.292 0.083-6.62 0.083-144.177 0-261.494-114.996-265.235-258.27l-0.007-0.347c-0.019-1.133-0.031-2.469-0.031-3.808 0-19.444 2.337-38.343 6.746-56.43l-0.335 1.625c-224.373 9.359-423.142 111.639-560.1 269.107l-0.812 0.954c-23.259-37.144-37.138-82.231-37.36-130.545v-0.060c0.966-90.31 48.563-169.294 119.817-214.118l1.062-0.624c-45.166 1.012-87.382 12.701-124.518 32.629l1.477-0.724v-2.779c2.972-127.084 95.325-231.747 216.477-253.712l1.61-0.242c-21.194-5.395-45.525-8.492-70.578-8.492-0.28 0-0.56 0-0.84 0.001h0.043c-1.113-0.017-2.426-0.026-3.742-0.026-16.868 0-33.371 1.564-49.371 4.554l1.653-0.257c38.885-105.103 137.841-178.852 254.147-179.8l0.116-0.001c-92.671-68.888-209.347-110.28-335.691-110.28-0.518 0-1.036 0.001-1.554 0.002h0.080c-1.793-0.022-3.911-0.035-6.032-0.035-20.776 0-41.265 1.228-61.399 3.615l2.437-0.235c117.56-72.679 260.092-115.747 412.684-115.747 1.655 0 3.309 0.005 4.962 0.015l-0.255-0.001c7.568-0.274 16.46-0.43 25.388-0.43 408.898 0 741.261 327.683 748.816 734.775l0.010 0.708c0 11.27-0.309 22.488-0.926 33.397 53.655 36.669 98.819 81.242 135.002 132.598l1.11 1.661z" />
<glyph unicode="&#xe90a;" glyph-name="guaranteed" d="M512 955.816c-282.816 0-512.083-229.267-512.083-512.083s229.267-512.083 512.083-512.083c282.816 0 512.083 229.267 512.083 512.083v0c0 282.816-229.267 512.083-512.083 512.083v0zM512-5.235c-0.018 0-0.040 0-0.062 0-247.993 0-449.030 201.038-449.030 449.030s201.038 449.030 449.030 449.030c247.993 0 449.030-201.038 449.030-449.030 0-0.022 0-0.044 0-0.065v0.003c-0.379-247.806-201.162-448.589-448.932-448.968h-0.036zM785.361 654.478l-379.733-379.753-167.114 167.052-44.526-44.526 211.64-211.515 424.301 424.321z" />
<glyph unicode="&#xe90b;" glyph-name="payment" d="M1001.814 822.184h-979.564c-12.284-0.009-22.241-9.965-22.25-22.249v-645.623c0.009-12.284 9.965-22.241 22.249-22.25h552.7v-44.53c0.009-12.29 9.974-22.25 22.264-22.25h276.764c12.291 0 22.256 9.96 22.264 22.249v44.515h105.509c12.284 0.009 22.241 9.965 22.25 22.249v645.637c-0.009 12.268-9.939 22.214-22.201 22.249h-0.003zM979.549 632.923h-935.019v144.637h935.019zM851.838 109.767h-232.358v222.649h232.343zM798.584 376.947h-125.866v22.264c-0.108 1.382-0.169 2.993-0.169 4.618 0 34.842 28.244 63.086 63.086 63.086s63.086-28.244 63.086-63.086c0-1.625-0.062-3.236-0.182-4.83l0.013 0.212zM896.337 176.594v178.088c0 0 0 0 0 0 0 12.297-9.968 22.264-22.264 22.264-0.032 0-0.065 0-0.098 0h-30.907v22.264c0.039 1.085 0.062 2.358 0.062 3.638 0 59.375-48.134 107.508-107.508 107.508s-107.508-48.134-107.508-107.508c0-1.28 0.022-2.553 0.067-3.822l-0.005 0.184v-22.264h-30.959c-12.29-0.009-22.25-9.974-22.25-22.264v0-178.104h-530.434v367.333h935.019v-367.333zM450.822 307.367h-318.387c-12.297 0-22.264-9.968-22.264-22.264s9.968-22.264 22.264-22.264v0h318.387c12.297 0 22.264 9.968 22.264 22.264s-9.968 22.264-22.264 22.264v0z" />
<glyph unicode="&#xe90c;" glyph-name="return" d="M1004.903 215.237h-61.909c-9.355-45.695-49.231-79.581-97.022-79.581s-87.668 33.886-96.913 78.943l-0.11 0.638h-474.007c-9.355-45.695-49.231-79.581-97.022-79.581s-87.668 33.886-96.913 78.943l-0.11 0.638h-61.828c-0.004 0-0.009 0-0.013 0-10.511 0-19.034 8.509-19.057 19.014v207.545c0.002 4.408 1.496 8.466 4.003 11.698l-0.032-0.043 157.827 206.197c3.437 5.342 9.351 8.829 16.080 8.829 0.025 0 0.049 0 0.074 0h139.668v64.264c0 0.004 0 0.009 0 0.013 0 10.511 8.509 19.034 19.014 19.057h668.296c0.004 0 0.009 0 0.013 0 10.511 0 19.034-8.509 19.057-19.014v-498.477c0-0.008 0-0.017 0-0.027 0-10.506-8.501-19.026-19.001-19.057h-0.097zM177.894 173.771c33.507 0 60.67 27.163 60.67 60.67s-27.163 60.67-60.67 60.67c-33.507 0-60.67-27.163-60.67-60.67v0c0-33.507 27.163-60.67 60.67-60.67v0zM135.782 562.721l-77.817-101.733h180.599v101.76zM317.552 630.201h-130.049l-22.408-29.313h92.675c0.004 0 0.009 0 0.013 0 10.511 0 19.034-8.509 19.057-19.014v-139.97c0-0.004 0-0.009 0-0.013 0-10.511-8.509-19.034-19.014-19.057h-219.577v-169.321h42.636c9.157 45.881 49.109 79.975 97.022 79.975s87.864-34.093 96.917-79.344l0.105-0.631h42.623zM845.932 173.744c33.507 0 60.67 27.163 60.67 60.67s-27.163 60.67-60.67 60.67c-33.507 0-60.67-27.163-60.67-60.67v0c0-33.507 27.163-60.67 60.67-60.67v0zM985.698 713.657h-630.004v-460.158h393.216c9.157 45.881 49.109 79.975 97.022 79.975s87.864-34.093 96.917-79.344l0.105-0.631h42.879v460.158zM679.653 640.417l12.53 8.721c4.731 3.328 7.785 8.763 7.785 14.912 0 10.038-8.137 18.174-18.174 18.174-3.888 0-7.492-1.222-10.447-3.301l0.058 0.039-61.384-42.744c-4.733-3.326-7.789-8.762-7.789-14.912s3.056-11.586 7.731-14.873l0.058-0.039 61.384-42.744c2.898-2.042 6.501-3.263 10.39-3.263 10.038 0 18.174 8.137 18.174 18.174 0 6.149-3.054 11.585-7.727 14.873l-0.058 0.039-15.315 10.645c56.93-7.219 100.507-55.349 100.507-113.658 0-63.247-51.271-114.518-114.518-114.518s-114.518 51.271-114.518 114.518c0 0.010 0 0.020 0 0.029v-0.001c-0.386 9.736-8.373 17.483-18.169 17.483s-17.783-7.747-18.168-17.448l-0.001-0.035c0-0.015 0-0.033 0-0.051 0-83.345 67.565-150.91 150.91-150.91s150.91 67.565 150.91 150.91c0 77.446-58.339 141.267-133.47 149.913l-0.698 0.066z" />
<glyph unicode="&#xe90d;" glyph-name="shipping" d="M19.097 215.233h61.91c9.355-45.696 49.231-79.582 97.023-79.582s87.669 33.887 96.914 78.944l0.11 0.638h474.013c9.355-45.696 49.231-79.582 97.023-79.582s87.669 33.887 96.914 78.944l0.11 0.638h61.816c0.008 0 0.017 0 0.027 0 10.518 0 19.044 8.526 19.044 19.044 0 0.010 0 0.019 0 0.028v-0.001 207.492c-0.006 4.407-1.498 8.465-4.003 11.699l0.032-0.044-157.816 206.2c-3.431 5.341-9.34 8.829-16.065 8.829-0.030 0-0.060 0-0.090 0h-139.615v64.265c0 0.008 0 0.017 0 0.027 0 10.518-8.526 19.044-19.044 19.044-0.010 0-0.019 0-0.028 0h-668.3c-0.008 0-0.017 0-0.027 0-10.518 0-19.044-8.526-19.044-19.044 0-0.010 0-0.019 0-0.028v0.001-498.426c0-0.012 0-0.026 0-0.040 0-10.518 8.526-19.044 19.044-19.044 0.010 0 0.019 0 0.028 0h-0.001zM846.116 173.767c-33.508 0-60.671 27.163-60.671 60.671s27.163 60.671 60.671 60.671c33.508 0 60.671-27.163 60.671-60.671v0c-0.023-33.499-27.173-60.648-60.669-60.671h-0.002zM888.269 562.748l77.818-101.761h-180.642v101.761zM706.456 630.203h130.051l22.408-29.313h-92.676c-0.008 0-0.017 0-0.027 0-10.518 0-19.044-8.526-19.044-19.044 0-0.010 0-0.019 0-0.028v0.001-139.97c0-0.008 0-0.017 0-0.027 0-10.518 8.526-19.044 19.044-19.044 0.010 0 0.019 0 0.028 0h219.509v-169.269h-42.624c-9.157 45.882-49.109 79.976-97.023 79.976s-87.865-34.094-96.918-79.345l-0.105-0.631h-42.624zM178.070 173.754c-33.508 0-60.671 27.163-60.671 60.671s27.163 60.671 60.671 60.671c33.508 0 60.671-27.163 60.671-60.671v0c-0.023-33.499-27.173-60.648-60.669-60.671h-0.002zM38.302 713.66h629.998v-460.164h-393.207c-9.157 45.882-49.109 79.976-97.023 79.976s-87.865-34.094-96.918-79.345l-0.105-0.631h-42.893v460.164z" />
<glyph unicode="&#xe90e;" glyph-name="thumb-up" d="M142.726 455.192v-80.646c0.376-13.1 11.085-23.575 24.24-23.575s23.864 10.477 24.239 23.541l0.001 0.034v80.852c-0.495 13.335-11.080 24.045-24.318 24.735l-0.063 0.003h-0.206c-13.144-0.866-23.536-11.518-23.987-24.695l-0.001-0.043v-0.206zM166.882 484.825v0c15.884-0.744 28.537-13.584 28.975-29.479l0.001-0.041v-80.59c0-15.977-12.953-28.929-28.929-28.929s-28.929 12.953-28.929 28.929v0 80.646c0.399 15.83 12.877 28.62 28.539 29.516l0.080 0.003zM166.882 354.666c10.58 0.736 18.961 9.214 19.54 19.77l0.003 0.054v81.002c-0.544 10.666-8.952 19.206-19.513 19.951l-0.066 0.003h-0.113c-10.535-0.844-18.832-9.355-19.335-19.908l-0.002-0.048v-81.021c0.582-10.61 8.962-19.088 19.477-19.821l0.066-0.003zM983.338 592.441c-15.983 8.506-34.951 13.501-55.085 13.501-0.678 0-1.356-0.005-2.032-0.017l0.101 0.001h-252.084v149.796c-1.075 44.523-20.63 84.277-51.257 112.037l-0.132 0.117c-28.128 22.902-64.403 36.775-103.918 36.775-1.92 0-3.833-0.032-5.737-0.098l0.276 0.007h-10.653v0.525c-1.35 0-2.589 0-3.751-0.132h-0.751c-18.257-1.972-33.906-11.712-43.774-25.798l-0.13-0.198c-7.985-12.168-12.737-27.080-12.737-43.101 0-0.198 0.001-0.394 0.002-0.591v0.031-250.678l-64.554-35.746-2.532 14.123c-2.554 11.121-12.109 19.379-23.685 19.934l-0.058 0.002h-324.928c-11.819-2.041-20.766-11.997-21.23-24.128l-0.002-0.047v-552.032c0.669-13.105 11.127-23.562 24.17-24.229l0.061-0.003h322.059c13.105 0.669 23.562 11.127 24.229 24.17l0.003 0.061v29.089l64.592-48.181c4.013-3.107 9.106-4.997 14.637-5.045h460.125c1.269-0.042 2.761-0.066 4.257-0.066 21.435 0 41.724 4.91 59.802 13.665l-0.819-0.357c24.644 13.364 41.177 38.903 41.523 68.333v471.452c-1.193 24.571-15.288 45.597-35.612 56.556l-0.36 0.177zM326.748 524.079v-493.254h-273.597v503.625h273.578zM970.886 535.95c-0.003-0.056-0.005-0.121-0.005-0.187s0.002-0.132 0.005-0.197v0.009-471.498c0-14.31-2.569-19.074-13.128-24.212l-2.213-1.087c-11.759-5.033-25.441-7.959-39.807-7.959-0.412 0-0.824 0.003-1.236 0.007l0.063-0.001h-451.655l-2.738 2.063-84.979 63.804v395.072l5.27 2.944 97.413 54.277c7.352 4.343 12.232 12.186 12.341 21.177v265.059c0.2 6.132 1.865 11.834 4.654 16.823l-0.096-0.187 8.834 13.353 5.439-8.759h4.613c1.348 0.056 2.93 0.087 4.519 0.087 27.737 0 53.224-9.632 73.3-25.736l-0.231 0.178c21.215-19.13 34.492-46.711 34.492-77.392 0-0.227-0.001-0.455-0.002-0.682v0.035-171.251c0.669-13.105 11.127-23.562 24.17-24.229l0.061-0.003h276.259c12.438-0.166 24.176-2.99 34.727-7.927l-0.519 0.218c1.332-0.712 2.232-1.163 2.982-1.538 4.459-1.688 7.572-5.923 7.572-10.885 0-0.447-0.025-0.889-0.075-1.321l0.004 0.053zM914.564-22.195h-460.001c-6.62 0.055-12.703 2.311-17.565 6.069l0.067-0.050h-0.094l-57.052 42.574v-19.673c-0.579-15.734-13.186-28.342-28.866-28.918l-0.054-0.002h-322.078c-15.734 0.579-28.342 13.186-28.918 28.866l-0.002 0.054v552.032c0.462 14.558 11.18 26.479 25.143 28.802l0.176 0.024h325.604c13.963-0.496 25.463-10.457 28.303-23.641l0.036-0.198 1.369-7.671 56.415 31.246v248.070c-0.001 0.177-0.002 0.385-0.002 0.593 0 16.928 5.017 32.684 13.646 45.863l-0.197-0.32c10.81 15.425 27.723 25.939 47.158 28.031l0.292 0.025h0.807c1.293 0 2.625 0.132 4.070 0.15h4.726v-0.581h5.965c1.659 0.058 3.608 0.091 5.564 0.091 40.684 0 78.027-14.306 107.273-38.162l-0.308 0.242c31.704-28.685 51.874-69.607 53.016-115.253l0.003-0.202v-145.238h247.377c0.584 0.010 1.272 0.016 1.961 0.016 20.947 0 40.68-5.203 57.974-14.388l-0.67 0.324c22.117-12.017 37.144-34.616 38.292-60.82l0.005-0.152v-471.498c-0.369-31.274-17.909-58.366-43.617-72.326l-0.439-0.218c-17.871-8.728-38.884-13.831-61.089-13.831-1.509 0-3.012 0.024-4.509 0.070l0.219-0.005zM442.785-8.748c3.237-2.506 7.345-4.031 11.806-4.070h459.973c1.25-0.042 2.717-0.066 4.191-0.066 20.678 0 40.253 4.722 57.706 13.146l-0.794-0.346c23.157 12.573 38.678 36.598 38.953 64.272v471.423c-1.161 22.812-14.284 42.314-33.178 52.46l-0.337 0.165c-15.351 8.152-33.564 12.939-52.896 12.939-0.683 0-1.366-0.006-2.046-0.018l0.101 0.002h-256.698v154.427c-1.027 43.17-19.961 81.723-49.632 108.667l-0.125 0.112c-27.34 22.248-62.592 35.724-100.993 35.724-1.882 0-3.754-0.032-5.619-0.096l0.271 0.007h-15.303v0.187c-16.575-1.972-30.748-10.872-39.734-23.676l-0.12-0.18c-7.447-11.424-11.875-25.406-11.875-40.423 0-0.235 0.001-0.47 0.003-0.705v0.036-253.378l-72.713-40.267-3.751 20.63c-2.151 8.914-9.806 15.525-19.092 16.071l-0.057 0.003h-324.591c-9.402-1.777-16.48-9.74-16.877-19.427l-0.001-0.040v-552.107c0.671-10.512 9.030-18.871 19.482-19.539l0.061-0.003h322.078c10.512 0.671 18.871 9.030 19.539 19.482l0.003 0.061v38.448l72.168-53.846-2.776-3.751zM914.564 26.23h-453.212l-90.83 68.211v400.079l105.027 58.553c5.883 3.536 9.793 9.829 9.939 17.046v265.346c0.259 7.018 2.231 13.522 5.508 19.178l-0.107-0.198 12.866 19.449 7.933-12.773h2.007c1.352 0.054 2.94 0.085 4.535 0.085 28.901 0 55.453-10.057 76.347-26.862l-0.236 0.184c22.203-19.954 36.105-48.765 36.105-80.822 0-0.188-0.001-0.377-0.002-0.565v0.029-171.494c0.671-10.512 9.030-18.871 19.482-19.539l0.061-0.003h276.278c13.242-0.149 25.738-3.182 36.939-8.5l-0.537 0.229c1.276-0.694 2.157-1.126 2.813-1.445 6.007-2.394 10.175-8.161 10.175-14.901 0-0.697-0.045-1.385-0.132-2.059l0.008 0.080v-471.349c0-16.091-3.525-22.506-15.717-28.433l-2.138-1.050c-12.309-5.365-26.65-8.486-41.719-8.486-0.492 0-0.982 0.003-1.473 0.010l0.075-0.001zM464.447 35.607h450.117c0.266-0.003 0.579-0.003 0.893-0.003 13.688 0 26.731 2.759 38.604 7.751l-0.656-0.245 2.306 1.144c8.346 4.088 10.447 6.865 10.447 19.992v471.366c-0.006 0.118-0.010 0.255-0.010 0.394s0.003 0.276 0.010 0.412l-0.001-0.019c0.034 0.26 0.054 0.56 0.054 0.866 0 3.109-2.044 5.74-4.863 6.623l-0.050 0.013c-0.712 0.357-1.707 0.825-3.132 1.612-9.41 4.359-20.405 6.973-31.99 7.144l-0.061 0.001h-276.091c-15.734 0.579-28.342 13.186-28.918 28.866l-0.002 0.054v171.063c0.002 0.236 0.003 0.516 0.003 0.795 0 29.302-12.646 55.651-32.777 73.887l-0.085 0.076c-19.12 15.279-43.649 24.517-70.336 24.517-1.951 0-3.891-0.050-5.817-0.147l0.27 0.010h-5.889l-2.908 4.745-4.801-7.258c-2.222-4.143-3.592-9.040-3.75-14.242l-0.001-0.050v-264.819c-0.135-10.748-5.964-20.104-14.603-25.206l-0.138-0.076-100.282-55.871v-389.876zM331.4 26.23h-282.937v512.909h282.955zM57.823 35.607h264.219v494.154h-264.2z" />
<glyph unicode="&#xe90f;" glyph-name="chevron-left" horiz-adv-x="525" d="M512 960c0.007 0 0.016 0 0.024 0 7.4 0 13.4-5.999 13.4-13.4 0-3.706-1.505-7.061-3.936-9.487v0l-489.113-489.14 489.113-489.113c2.327-2.407 3.761-5.691 3.761-9.309 0-7.4-5.999-13.4-13.4-13.4-3.618 0-6.902 1.434-9.313 3.765l-498.462 498.462c-2.424 2.425-3.923 5.774-3.923 9.474s1.499 7.049 3.923 9.474l498.466 498.6c2.402 2.476 5.745 4.027 9.452 4.073h0.009z" />
<glyph unicode="&#xe910;" glyph-name="chevron-right" horiz-adv-x="525" d="M13.4-64c-0.007 0-0.016 0-0.024 0-7.4 0-13.4 5.999-13.4 13.4 0 3.706 1.505 7.061 3.936 9.487v0l489.113 489.14-489.113 489.113c-2.327 2.407-3.761 5.691-3.761 9.309 0 7.4 5.999 13.4 13.4 13.4 3.618 0 6.902-1.434 9.313-3.765l498.462-498.462c2.424-2.425 3.923-5.774 3.923-9.474s-1.499-7.049-3.923-9.474l-498.466-498.6c-2.402-2.476-5.745-4.027-9.452-4.073h-0.009z" />
<glyph unicode="&#xe911;" glyph-name="heart-filled" horiz-adv-x="1247" d="M356.040 960c91.982-0.49 180.090-37.487 244.87-102.756 64.868 65.269 153.066 102.266 245.137 102.756h0.757c199.012-4.274 359.513-171.053 356.174-370.109-0.223-84.725-29.117-166.912-81.965-233.16-86.773-112.685-193.714-208.228-315.437-281.734-61.974-40.381-126.397-76.889-192.868-109.256-5.966-2.805-12.911-2.805-18.877 0-61.529 29.83-121.233 63.221-178.888 99.996-114.777 69.855-217.934 157.206-305.731 258.938-70.3 70.344-109.657 166.022-109.167 265.483-3.606 198.879 156.717 365.613 355.595 369.842h0.401z" />
<glyph unicode="&#xe912;" glyph-name="trash" d="M405.291 915.541c-48.331-8.851-86.847-43.346-101.334-88.591l-0.255-0.923c-3.243-10.197-3.925-16.896-4.608-45.653l-0.811-33.707h-89.131c-95.061 0-98.56-0.256-110.080-8.491-9.472-6.741-12.885-15.744-12.885-34.176 0-14.123 0.555-17.195 4.267-23.808 4.693-8.405 12.544-14.507 21.973-17.109 3.413-0.939 17.877-1.749 32.171-1.749h25.984l0.939-579.413 4.011-11.947c14.165-42.283 45.653-73.472 87.296-86.443l12.8-4.011h472.747l12.8 4.011c41.643 12.971 73.131 44.16 87.296 86.443l4.011 11.947 0.939 579.413h25.984c14.293 0 28.757 0.811 32.171 1.749 9.493 2.619 17.237 8.778 21.88 16.932l0.093 0.177c3.712 6.656 4.267 9.643 4.224 23.808-0.043 18.475-3.456 27.52-12.843 34.176-11.52 8.235-15.019 8.491-110.080 8.491h-89.131l-0.811 33.707c-0.683 28.757-1.365 35.456-4.608 45.653-13.306 41.117-45.086 72.855-85.294 85.84l-0.935 0.261-13.696 4.267-103.253 0.299c-56.789 0.171-107.136-0.341-111.829-1.152zM610.56 829.397c6.535-2.064 12.098-5.629 16.493-10.305l0.019-0.020c10.709-10.709 12.928-19.115 12.928-48.811v-23.595h-256v23.595c0 29.739 2.219 38.101 12.971 48.811 12.8 12.843 11.307 12.672 114.304 12.8 76.331 0.128 91.947-0.299 99.285-2.475zM768 381.696c0-231.979-0.384-280.917-2.347-287.403-3.329-10.637-10.321-19.306-19.468-24.721l-0.202-0.111-7.851-4.608h-452.267l-7.851 4.608c-4.793 2.951-8.888 6.476-12.356 10.551l-0.060 0.073c-10.197 13.355-9.6-5.12-9.6 300.715v280.533h512v-279.637zM410.197 530.901c-9.351-2.542-16.968-8.642-21.456-16.719l-0.090-0.177-3.797-7.125-0.469-140.459c-0.299-91.648 0.128-142.72 1.28-146.944 4.48-16.683 16.853-25.813 36.565-27.093 20.693-1.323 34.261 4.651 41.984 18.475l4.267 7.595v288.427l-3.797 7.125c-2.391 4.254-5.427 7.848-9.021 10.784l-0.067 0.053c-11.264 8.064-30.763 10.624-45.397 6.059zM580.864 530.901c-9.351-2.542-16.968-8.642-21.456-16.719l-0.090-0.177-3.797-7.125-0.469-140.459c-0.299-91.648 0.128-142.72 1.28-146.944 4.48-16.683 16.853-25.813 36.565-27.093 20.693-1.323 34.261 4.651 41.984 18.475l4.267 7.595v288.427l-3.797 7.125c-2.391 4.254-5.427 7.848-9.021 10.784l-0.067 0.053c-11.264 8.064-30.763 10.624-45.397 6.059z" />
<glyph unicode="&#xe913;" glyph-name="cross" d="M30.719 947.846c-7.503-4.137-13.609-9.975-17.945-17.020l-0.119-0.208c-1.448-2.916-2.295-6.351-2.295-9.983 0-3.893 0.973-7.559 2.69-10.767l-0.060 0.123c1.505-3.011 105.371-108.214 230.812-233.766l228.136-228.303-228.136-228.303c-125.441-125.553-229.306-230.756-230.812-233.766-5.241-10.37-3.345-18.844 6.411-29.27 9.98-10.593 19.903-13.102 30.608-7.749 3.011 1.505 108.214 105.371 233.766 230.812l228.303 228.136 228.303-228.136c125.553-125.441 230.756-229.306 233.766-230.812 10.704-5.352 20.628-2.843 30.608 7.749 9.757 10.426 11.652 18.9 6.411 29.27-1.505 3.011-105.371 108.214-230.812 233.766l-228.136 228.303 228.136 228.303c125.441 125.553 229.306 230.756 230.812 233.766 5.798 11.541 2.063 22.747-11.15 33.339-7.861 6.356-17.618 7.861-25.534 3.903-3.178-1.617-108.548-105.594-234.101-231.035l-228.303-228.136-228.303 228.136c-125.553 125.441-230.756 229.306-233.766 230.812-3.073 1.596-6.709 2.532-10.564 2.532-3.145 0-6.144-0.623-8.881-1.752l0.155 0.057z" />
<glyph unicode="&#xe914;" glyph-name="chevron-down" horiz-adv-x="1849" d="M105.688 913.406c-24.776-14.405-44.931-34.242-59.295-57.976l-0.415-0.739c-4.966-10.346-7.867-22.491-7.867-35.314 0-14.084 3.5-27.351 9.677-38.978l-0.218 0.45c7.165-13.534 91.158-99.12 413.197-421.357 241.43-241.828 410.012-408.221 419.168-413.794 14.331-8.957 17.117-9.554 44.982-9.554 27.666 0 30.452 0.597 44.783 9.554 9.156 5.573 177.937 172.364 419.168 413.794 322.636 322.636 405.833 407.823 413.197 421.357 18.908 35.627 9.355 75.036-26.87 109.469-33.836 32.443-67.672 40.404-101.508 24.083-14.131-6.767-74.837-66.080-382.745-373.788l-366.225-365.429-366.026 365.429c-400.061 399.663-380.754 381.949-416.979 381.949-0.288 0.004-0.627 0.007-0.968 0.007-12.88 0-24.966-3.398-35.411-9.347l0.353 0.185z" />
<glyph unicode="&#xe915;" glyph-name="chevron-up" horiz-adv-x="1849" d="M879.935 950.029c-9.156-5.573-177.937-172.364-419.168-413.794-322.636-322.636-405.833-407.823-413.197-421.357-18.908-35.627-9.355-75.036 26.87-109.469 33.836-32.443 67.672-40.404 101.508-24.083 14.131 6.767 74.837 66.080 382.745 373.589l366.026 365.628 366.225-365.628c307.907-307.509 368.613-366.822 382.745-373.589 35.826-17.515 72.648-7.165 107.678 30.253 32.443 34.831 39.011 68.269 20.103 104.095-6.568 12.738-95.338 103.1-412.6 420.561-241.43 241.828-410.012 408.221-419.168 413.794-14.331 8.957-17.117 9.554-44.982 9.554-27.666 0-30.452-0.597-44.783-9.554z" />
</font>
</defs>
</svg>
